请选择 进入手机版 | 继续访问电脑版
用户
 找回密码
 立即注册

【2015】酷玩乐队 Coldplay A Head Full Of Dreams

[复制链接]

632

主题

632

帖子

632

积分

超级版主

Rank: 8Rank: 8

积分
632
发表于 2016-1-17 09:21:47

A Head Full Of Dreams 专辑介绍


@乐  队:Coldplay
@专  辑  名:A Head Full Of Dreams
@风  格: Alternative, Rock, Pop, Britpop
@版  本: Europe
@年  份: 2015
@出  版: Parlophone
@国  家: UK
@格  式: FLAC (*.flac)
@轨  道: tracks+.cue
@类  型: lossless
@时  长: 45:51


A Head Full Of Dreams 曲目


01. A Head Full Of Dreams (3:44)
02. Birds (3:49)
03. Hymn For The Weekend (4:19)
04. Everglow (4:43)
05. Adventure Of A Lifetime (4:24)
06. Fun (feat. Tove Lo) (4:28)
07. Kaleidoscope (1:52)
08. Army Of One (6:17)
09. Amazing Day (4:31)
10. Colour Spectrum (1:00)
11. Up & Up (6:45)


A Head Full Of Dreams 索引(.cue)

  1. REM GENRE Pop
  2. REM DATE 2015
  3. REM DISCID 920ABE0B
  4. REM COMMENT "ExactAudioCopy v1.1"
  5. PERFORMER "Coldplay"
  6. TITLE "A Head Full Of Dreams"
  7. FILE "Coldplay - A Head Full Of Dreams.wav" WAVE
  8.   TRACK 01 AUDIO
  9.     TITLE "A Head Full Of Dreams"
  10.     PERFORMER "Coldplay"
  11.     INDEX 01 00:00:00
  12.   TRACK 02 AUDIO
  13.     TITLE "Birds"
  14.     PERFORMER "Coldplay"
  15.     INDEX 01 03:43:58
  16.   TRACK 03 AUDIO
  17.     TITLE "Hymn For The Weekend"
  18.     PERFORMER "Coldplay"
  19.     INDEX 01 07:32:65
  20.   TRACK 04 AUDIO
  21.     TITLE "Everglow"
  22.     PERFORMER "Coldplay"
  23.     INDEX 01 11:51:52
  24.   TRACK 05 AUDIO
  25.     TITLE "Adventure Of A Lifetime"
  26.     PERFORMER "Coldplay"
  27.     INDEX 01 16:34:29
  28.   TRACK 06 AUDIO
  29.     TITLE "Fun (feat. Tove Lo)"
  30.     PERFORMER "Coldplay"
  31.     INDEX 01 20:58:13
  32.   TRACK 07 AUDIO
  33.     TITLE "Kaleidoscope"
  34.     PERFORMER "Coldplay"
  35.     INDEX 01 25:25:53
  36.   TRACK 08 AUDIO
  37.     TITLE "Army Of One"
  38.     PERFORMER "Coldplay"
  39.     INDEX 01 27:17:42
  40.   TRACK 09 AUDIO
  41.     TITLE "Amazing Day"
  42.     PERFORMER "Coldplay"
  43.     INDEX 01 33:34:29
  44.   TRACK 10 AUDIO
  45.     TITLE "Colour Spectrum"
  46.     PERFORMER "Coldplay"
  47.     INDEX 01 38:05:37
  48.   TRACK 11 AUDIO
  49.     TITLE "Up & Up"
  50.     PERFORMER "Coldplay"
  51.     INDEX 01 39:05:45
复制代码


A Head Full Of Dreams 下载
购买主题 本主题需向作者支付 10 下载币 才能浏览
使用道具 举报 回复
*滑动验证:
您需要登录后才可以回帖 登录 | 立即注册

本版积分规则