请选择 进入手机版 | 继续访问电脑版
用户
 找回密码
 立即注册

【2016】David Bowie 《Blackstar》

[复制链接]

632

主题

632

帖子

632

积分

超级版主

Rank: 8Rank: 8

积分
632
发表于 2016-1-17 21:49:55

Blackstar 专辑介绍


@歌  手:David Bowie
@专  辑:Blackstar
@风  格: Art Rock, Glam
@年  代: 2016
@国  家: UK
@格  式: FLAC (*.flac)
@轨  道: tracks+.cue
@类  型: lossless
@时  长: 41:13

Blackstar 曲目


01. Blackstar (9:57)
02. 'Tis a Pity She Was a Whore (4:52)
03. Lazarus (6:22)
04. Sue (Or In a Season of Crime) (4:40)
05. Girl Loves Me (4:51)
06. Dollar Days (4:44)
07. I Can't Give Everything Away (5:47)

Blackstar 转录信息

  1. X Lossless Decoder version 20141129 (148.1)

  2. XLD extraction logfile from 2016-01-07 20:01:59 +0100

  3. David Bowie / Blackstar

  4. Used drive : MATSHITA DVD-R   UJ-8A8 (revision HB14)
  5. Media type : Pressed CD

  6. Ripper mode             : XLD Secure Ripper
  7. Disable audio cache     : OK for the drive with a cache less than 1375KiB
  8. Make use of C2 pointers : NO
  9. Read offset correction  : 102
  10. Max retry count         : 20
  11. Gap status              : Analyzed, Appended (except HTOA)

  12. TOC of the extracted CD
  13.      Track |   Start  |  Length  | Start sector | End sector
  14.     ---------------------------------------------------------
  15.         1  | 00:00:00 | 09:57:70 |         0    |    44844
  16.         2  | 09:57:70 | 04:52:47 |     44845    |    66791
  17.         3  | 14:50:42 | 06:22:29 |     66792    |    95470
  18.         4  | 21:12:71 | 04:40:28 |     95471    |   116498
  19.         5  | 25:53:24 | 04:51:71 |    116499    |   138394
  20.         6  | 30:45:20 | 04:44:61 |    138395    |   159755
  21.         7  | 35:30:06 | 05:47:21 |    159756    |   185801

  22. AccurateRip Summary
  23.     Disc not found in AccurateRip DB.

  24. All Tracks
  25.     Album gain               : -9.12 dB
  26.     Peak                     : 1.000000
  27.     Statistics
  28.         Read error                           : 0
  29.         Jitter error (maybe fixed)           : 0
  30.         Retry sector count                   : 0
  31.         Damaged sector count                 : 0

  32. Track 01
  33.     Filename : /Users/Shared/01 Blackstar.flac
  34.     Pre-gap length : 00:02:00

  35.     Track gain               : -8.17 dB
  36.     Peak                     : 1.000000
  37.     CRC32 hash (test run)    : CDE4DA5E
  38.     CRC32 hash               : CDE4DA5E
  39.     CRC32 hash (skip zero)   : 41BC0F2F
  40.     AccurateRip v1 signature : 93A5D674
  41.     AccurateRip v2 signature : 0136BCB7
  42.         ->Track not present in AccurateRip database.
  43.     Statistics
  44.         Read error                           : 0
  45.         Jitter error (maybe fixed)           : 0
  46.         Retry sector count                   : 0
  47.         Damaged sector count                 : 0

  48. Track 02
  49.     Filename : /Users/Shared/02 'Tis a Pity She Was a Whore.flac

  50.     Track gain               : -9.76 dB
  51.     Peak                     : 1.000000
  52.     CRC32 hash (test run)    : 5EAABD5E
  53.     CRC32 hash               : 5EAABD5E
  54.     CRC32 hash (skip zero)   : 5711A22E
  55.     AccurateRip v1 signature : EC70B451
  56.     AccurateRip v2 signature : 0E90A083
  57.         ->Track not present in AccurateRip database.
  58.     Statistics
  59.         Read error                           : 0
  60.         Jitter error (maybe fixed)           : 0
  61.         Retry sector count                   : 0
  62.         Damaged sector count                 : 0

  63. Track 03
  64.     Filename : /Users/Shared/03 Lazarus.flac

  65.     Track gain               : -9.15 dB
  66.     Peak                     : 1.000000
  67.     CRC32 hash (test run)    : 27D67D7B
  68.     CRC32 hash               : 27D67D7B
  69.     CRC32 hash (skip zero)   : 66E6C671
  70.     AccurateRip v1 signature : D83AC704
  71.     AccurateRip v2 signature : C4657A5C
  72.         ->Track not present in AccurateRip database.
  73.     Statistics
  74.         Read error                           : 0
  75.         Jitter error (maybe fixed)           : 0
  76.         Retry sector count                   : 0
  77.         Damaged sector count                 : 0

  78. Track 04
  79.     Filename : /Users/Shared/04 Sue (Or In a Season of Crime).flac

  80.     Track gain               : -9.25 dB
  81.     Peak                     : 1.000000
  82.     CRC32 hash (test run)    : A963D5AC
  83.     CRC32 hash               : A963D5AC
  84.     CRC32 hash (skip zero)   : 180F1380
  85.     AccurateRip v1 signature : 24988F44
  86.     AccurateRip v2 signature : 3CF7F700
  87.         ->Track not present in AccurateRip database.
  88.     Statistics
  89.         Read error                           : 0
  90.         Jitter error (maybe fixed)           : 0
  91.         Retry sector count                   : 0
  92.         Damaged sector count                 : 0

  93. Track 05
  94.     Filename : /Users/Shared/05 Girl Loves Me.flac

  95.     Track gain               : -9.00 dB
  96.     Peak                     : 1.000000
  97.     CRC32 hash (test run)    : 4295B04A
  98.     CRC32 hash               : 4295B04A
  99.     CRC32 hash (skip zero)   : 7493816C
  100.     AccurateRip v1 signature : 354EB9FF
  101.     AccurateRip v2 signature : BD5949C8
  102.         ->Track not present in AccurateRip database.
  103.     Statistics
  104.         Read error                           : 0
  105.         Jitter error (maybe fixed)           : 0
  106.         Retry sector count                   : 0
  107.         Damaged sector count                 : 0

  108. Track 06
  109.     Filename : /Users/Shared/06 Dollar Days.flac

  110.     Track gain               : -8.57 dB
  111.     Peak                     : 1.000000
  112.     CRC32 hash (test run)    : 09CF2FEE
  113.     CRC32 hash               : 09CF2FEE
  114.     CRC32 hash (skip zero)   : 4EB41C35
  115.     AccurateRip v1 signature : 51E8A8D4
  116.     AccurateRip v2 signature : 3E012F86
  117.         ->Track not present in AccurateRip database.
  118.     Statistics
  119.         Read error                           : 0
  120.         Jitter error (maybe fixed)           : 0
  121.         Retry sector count                   : 0
  122.         Damaged sector count                 : 0

  123. Track 07
  124.     Filename : /Users/Shared/07 I Can't Give Everything Away.flac

  125.     Track gain               : -9.38 dB
  126.     Peak                     : 1.000000
  127.     CRC32 hash (test run)    : 852ADC18
  128.     CRC32 hash               : 852ADC18
  129.     CRC32 hash (skip zero)   : 2CDDEEB2
  130.     AccurateRip v1 signature : 3529B741
  131.     AccurateRip v2 signature : 6ED6F08B
  132.         ->Track not present in AccurateRip database.
  133.     Statistics
  134.         Read error                           : 0
  135.         Jitter error (maybe fixed)           : 0
  136.         Retry sector count                   : 0
  137.         Damaged sector count                 : 0

  138. No errors occurred

  139. End of status report

  140. -----BEGIN XLD SIGNATURE-----
  141. 1NaLVoRBRbenuuCnqLapwe2Gu46Hrm5kfIcyyFPuQzPfuuSRUiE518qQewe9gAS29F83SeoZc.ql7ROi_3FFBtk2xQA.5o2ViXOUtIu
  142. -----END XLD SIGNATURE-----
复制代码


Blackstar 下载
购买主题 本主题需向作者支付 10 下载币 才能浏览
使用道具 举报 回复
*滑动验证:
您需要登录后才可以回帖 登录 | 立即注册

本版积分规则